1. Welkom op het onafhankelijke Ziggo Gebruikersforum. Een forum voor en door gebruikers van Ziggo.
    Registreer je gratis om direct zelf berichten te plaatsen en gebruik te maken van extra functies!
    Verberg deze melding

VIDEO_TS streamen naar de 5200C

Discussie in 'Humax iHDR-5200 (HD-PVR)' gestart door Rich@rd, 23 jun 2013.

Niet open voor verdere reacties.
  1. Goedendag,

    Via mijn Humax 5200C speel ik streaming films af vanaf mijn Diskstation (via DLNA), met avi's etc geen probleem.

    Alleen wanneer ik een VIDEO_TS wil afspelen gaat het niet goed, het lijkt erop dat de Humax dit niet (of niet goed) ondersteund.
    Ik kan daar geen antwoord op vinden, dus vandaar mijn post hier op het forum.

    Wanneer ik de VIDEO_TS bestanden via laptop of tablet afspeel kan ik de keuze maken in gesproken taal etc.
    De film wordt dan ook in zijn geheel afgespeeld.

    Op de Humax kan ik het "hoofdbestand" (.inf dacht ik) niet afspelen, maar wel de andere bestanden die de "stukjes" film bevatten. Maar dan moet ik ze één voor één kijken en kan ik niet de taal of ondertiteling instellen.

    Iemand ervaring (of oplossing) hiermee?

    Mvg,
    Richard
     
  2. tichel

    tichel Forum Member

    Berichten:
    999
    Ziggo:
    Alles in 1
    Gebied:
    fZiggo
    Meer..
    Locatie:
    @Home Groningen/Assen
    Lid geworden:
    12 mrt 2010
    De .IFO (met backup .BUP) bevat de InFOrmatie, en is geen film.
    VTS_01_0.VOB is het menu.
    VTS_01_1.VOB .. VTS_01_n.VOB de film.
    http://www.videoredo.net/msgBoard/s...s-the-best-way-to-join-multiple-DVD-VOB-files
    Voor op Unix gebaseerde systemen (MAC OS/X, Linux, etc.):
    cat vob1.vob vob2.vob vob3.vob > outputFile.mpg
     
  3. Ik open de VIDEO_TS file en zie dan de volgende bestanden (op de Humax):

    VTS_01_0.VOB
    VTS_01_1.VOB ...... VTS_01_....VOB


    De eerste is dus het menu en kan ik op mijn andere mediaspelers openen, maar niet op de Humax (bestandsformaat wordt niet ondersteund...)

    De andere (stukjes film) kan ik wel openen. (alleen is dan ondertiteling en taal niet ingesteld)

    Met "hoofdbestand" bedoelde ik dus het menu.

    Ik kan dus het menu niet openen met de Humax 5200C
     
  4. Nee VOB bestanden worden niet door de Humax ondersteund, wel zijn ze op de PC met VLC afspeelbaar of je moet een Mediaplayer aanschaffen, b.v. Mede8er 400X2 (€75).
    Persoonlijk vind ik de kwaliteit van een VOB bestands formaat teveel gecomprimeerd en de vertoning op een groot flatscreen zeer slecht en zal hier niet voor kiezen. MKV, AVI, MPEG4 zijn redelijk goede bestandsformaten.

    Gerard.
     
  5. tichel

    tichel Forum Member

    Berichten:
    999
    Ziggo:
    Alles in 1
    Gebied:
    fZiggo
    Meer..
    Locatie:
    @Home Groningen/Assen
    Lid geworden:
    12 mrt 2010
    Ik heb een .vob met 2 talen: Engels en Duits.
    Vanaf een Serviio server speelt de Humax deze af in het Engels, en met de Audio knop krijg ik geen keuze.
    Dan maar een snelle conversie met ffmpeg waarbij de video gelijk blijft, met alleen de Duitse audio geselecteerd.
    Stream #0:0[0x1e0]: Video: mpeg2video (Main), yuv420p, 720x576 [SAR 64:45 DAR 16:9], 25 fps, 25 tbr, 90k tbn, 50 tbc
    Stream #0:1[0x80]: Audio: ac3, 48000 Hz, 5.1(side), fltp, 448 kb/s
    Stream #0:2[0x81]: Audio: ac3, 48000 Hz, 5.1(side), fltp, 448 kb/s
    0:0 is de video, 0:1 de engelse audio, 0:2 de duitse audio.
    ffmpeg -i en.vob -vcodec copy -map 0:0 -acodec copy -map 0:2 de.vob

    Voor ondertiteling heb ik helaas geen oplossing.
     
  6. Bedankt voor de reacties.

    Nu weet ik iig dat ik niet verder hoef te proberen dit functionerend te krijgen.

    Het converteren is een goed idee. Het gaat namelijk om een aantal Disney films voor de kids. Ondertiteling is dus niet relevant. (en ook aan de beeldkwaliteit stel in dit geval niet zulke hoge eisen :wink:)

    Tnx!
     
  7. @ Tichel,

    ffmpeg heb ik net even bekeken, daar moet je wel even voor zitten voordat je het doorhebt. (de werking)

    Heb net even een ander progje gedownload, Free VOB Converter. Op dit moment is deze bezig. Duurt een half uurtje dan is de film geconverteerd naar AVI. (met NL gesproken uiteraard)

    betreft ffmpeg, is het de moeite waard om mezelf hierin te verdiepen, gezien de functie waar ik het voor wil gebruiken.
    Oftewel, wat zijn de voordelen.

    Ik hoor het graag.
     
  8. tichel

    tichel Forum Member

    Berichten:
    999
    Ziggo:
    Alles in 1
    Gebied:
    fZiggo
    Meer..
    Locatie:
    @Home Groningen/Assen
    Lid geworden:
    12 mrt 2010
    ffmpeg heeft veel mogelijkheden, maar die hoef je niet eens te kennen.
    'ffmpeg -i x.vob' laat je de componenten zien.
    Of 'mediainfo' van http://mediainfo.sourceforge.net
    Kijk welke video en audio stream je wilt, bijvoorbeeld 0:2 en 0:4.
    '-vcodec copy' = kopieer video, zonder hercodering : '-map 0:2'
    '-acodec copy' = kopieer audio, zonder hercodering, 1 stream : '-map 0:4'
    ffmpeg -i x.vob -vcodec copy -map 0:2 -acodec copy -map 0:4 y.vob
    En het gaat supersnel, in de orde van 1 minuut per GigaByte.
     
  9. mkv en avi zijn toch slechts containers waarin de daar gebruikte codecs bepalen of het wel/niet afspeelbaar is op een 5200?

     
  10. Klopt en VOB is ook een container (van MPEG2 of MPEG1).
     
Niet open voor verdere reacties.

Deel Deze Pagina